WK綜合論壇, WK综合论坛

查看:165 回復:1 發表於 2019-8-25 13:25:35
本主題由 212love 於 2019-8-27 09:30 解除高亮
累計簽到︰1792 天
連續簽到︰5 天
發表於 2019-8-25 10:02:19 | 顯示全部樓層 |閱讀模式
VIP精品區,資源無限好賺金任務區,輕松賺金幣
加入VIP,享受高級特權宣傳賺金又升級,超級棒

黑衣人:全球追緝 Men.in.Black.International., 2019.[MKV / 10.63G] [複製鏈接]

影視分享
分類: 電影
題材: 喜劇 動作 冒險 科幻 
地區: 美國 
語言: 英语 
格式: MKV 
年份: 2019
資源: BT资源
c2a1a58aed399.png ( T/ }7 s  Z7 ^

# r  S9 Y$ T5 m. F◎译  名 黑衣人:全球追缉/黑衣人外传/黑衣人4/黑衣人23/黑超特警队4/黑衣人:国际守护者//MIB星际战警:跨国行动(台)/黑超特警组:反转世界(港)
. U& c1 b8 M; {; q◎片  名 Men in Black International/Men in Black 4 / Men in Black IV / MIB 23 / MIB 4
  z9 \7 Q- U# X( Y* M1 `; Q◎年  代 2018
' x- M, u) G0 B◎产  地 美国  
8 t( W7 C2 W. N, ^  ]/ \◎类  别 动作/冒险/喜剧/科幻; Y& z/ o( B: ~8 U
◎IMDb评分  5.7/10 from 27739 users % V/ }9 _8 a$ i
◎IMDB链接 https://www.imdb.com/title/tt2283336/% o# W3 A/ \) r! I, c
◎片  长 1 h 54 min ) @2 D; w3 U/ {
◎导  演 F·加里·格雷 F. Gary Gray
* L7 J: r. D" D$ w0 K; Z& P◎主  演 克里斯·海姆斯沃斯 Chris Hemsworth
. _$ p, j9 y% m; L' g5 m       泰莎·汤普森 Tessa Thompson: ?' ~% O) T$ b3 Y
       丽贝卡·弗格森 Rebecca Ferguson
( ?- r! q( _% @      库梅尔·南贾尼 Kumail Nanjiani/ X4 \5 A& U( D/ P8 C

  _3 \* |% b- _◎简  介
! D/ c( P( b0 c+ ~" X0 r
( Z$ q: H7 A0 n- d0 C" d  全球最具影响力的经典科幻IP《黑衣人》全面升级!科幻电影之父史蒂文·斯皮尔伯格联手《速度与激情8》导演F·加里·格雷,金牌班底鼎力巨献!英国黑衣人总部王牌探员H(锤哥)与新晋探员M(泰莎·汤普森)在阻止外星团伙入侵的过程中意外铲除了隐藏在黑衣人组织中的内奸,成功拯救世界。影片中,各种脑洞大开的外星人和颠覆想象的高科技装备轮番登场,热血沸腾惊心动魄的动作追车场面层出不穷,完美构建出全新的黑衣人宇宙观。
! |; {7 P6 y* t1 t3 U, y: _8 D; A5 q+ B) R6 t5 |0 @0 h
花絮8 ]/ p' w; U2 n+ k

: y* L; g6 [: D8 h/ ?" U% S) r/ d. j.《黑衣人》之系列前的电影风格是60年代的现代主义风格,将纽约市定位成世界贸易中心。而这部影片中,剧组创造了一种更接近3、40年代的装饰艺术风格,一种庄重的现代风格。
1 k8 ^* D% O5 D2 J4 v' j
# D% W+ G$ l: c/ T.影片拍摄在英国华纳的利维斯登工作室进行,这里搭建了许多内景,包括黑衣人伦敦总部,T的圆形办公室,瑞莎的地中海领地,莫莉儿时住所,黑衣人审讯室,O的蛋形办公室,埃菲尔铁塔传送室等。
4 }# Z# Q+ k. Q2 e6 I
: \* y( D( R+ r1 l7 N.在电影里,埃菲尔铁塔是一个通往其他星球的传送装置,并且可以将你带到巴黎的地面街道上。外星人可以从其他星球移民到地球,虽然这里已经废弃多年。这里有三个通向其他维度的大门。7 Z: Z; v" |: v4 K

7 x+ x$ N$ i6 H; Y0 Z0 W( i.遇到双胞胎杀手的夜店在伦敦中部的比林斯门拍摄,那里在17世纪时是伦敦的鱼市。7 m  p8 x3 `  W

" l. _9 E* _, X3 a) U6 m9 S. U( I.剧组对记忆消除棒进行了创新,在保持装置基本功能和熟悉质感的基础上,给它的机制里增添了一些动画,让它打开和移动时拥有不一样的感觉,但是基本设计和观众喜爱的老版本没有太大区别。. y+ H% R  H8 V

8 S! c, J, r4 d/ d1 ?( y* \# c& F5 [, y
Video
) t. X0 H! X  p+ iID : 10 J8 B/ B* z1 K1 n
Format : AVC
6 a9 W5 A3 K. ?) OFormat/Info : Advanced Video Codec
; A- W/ G& n# }+ L/ L" jFormat profile : High@L4.1
* D+ Q. Y% a" S( k, l5 xFormat settings : CABAC / 4 Ref Frames5 l; I( \; C2 R! s+ f1 f+ g4 ?- |  _
Format settings, CABAC : Yes
0 ]8 k; R) R! e- t& HFormat settings, Reference frames : 4 frames+ ?6 ~0 y2 E( g
Codec ID : V_MPEG4/ISO/AVC
; Z* h7 v5 B( s& _7 p6 {6 KDuration : 1 h 54 min+ f! t% k) i& x" ?4 j8 k0 s
Bit rate : 9 393 kb/s6 @, U5 X" L* [. f; z" d
Width : 1 920 pixels
" I& t. O2 t! X$ O4 tHeight : 960 pixels
1 s6 G6 i! Q  p& TDisplay aspect ratio : 2.000
* Z2 C( f; K* a- `+ F9 U; q/ LFrame rate mode : Constant  C; T0 m5 Z# }& q0 i2 \  W
Frame rate : 23.976 (24000/1001) FPS
; ^  H9 G- \7 H- `. T* d# MColor space : YUV) M) t3 q' l: p0 I
Chroma subsampling : 4:2:02 K/ T- L: [5 `9 S9 C4 X" t
Bit depth : 8 bits
- m% K' c* x% D" ?+ ^; S  OScan type : Progressive
2 t. d9 G- \# zBits/(Pixel*Frame) : 0.213
! O4 h7 x) I3 [  N! TStream size : 7.53 GiB (71%)
% x, G7 Z7 F0 {Title : Men.in.Black.International.2019.1080p.BluRay.x264.DTS-HD.MA.7.1-FGT) C& D6 D/ Z! t+ j/ d+ e, ]6 [9 u* T7 R- I
Writing library : x264 core 158 r2984 3759fcb
; A) g; G; d2 P# [Encoding settings : cabac=1 / ref=4 / deblock=1:-3:-3 / analyse=0x3:0x133 / me=umh / subme=8 / psy=1 / psy_rd=1.00:0.00 / mixed_ref=1 / me_range=16 / chroma_me=1 / trellis=1 / 8x8dct=1 / cqm=0 / deadzone=21,11 / fast_pskip=0 / chroma_qp_offset=-2 / threads=30 / lookahead_threads=5 / sliced_threads=0 / nr=0 / decimate=1 / interlaced=0 / bluray_compat=0 / constrained_intra=0 / bframes=3 / b_pyramid=2 / b_adapt=1 / b_bias=0 / direct=3 / weightb=1 / open_gop=0 / weightp=2 / keyint=250 / keyint_min=23 / scenecut=40 / intra_refresh=0 / rc_lookahead=50 / rc=2pass / mbtree=1 / bitrate=9393 / ratetol=1.0 / qcomp=0.60 / qpmin=0 / qpmax=69 / qpstep=4 / cplxblur=20.0 / qblur=0.5 / vbv_maxrate=62500 / vbv_bufsize=78125 / nal_hrd=none / filler=0 / ip_ratio=1.40 / aq=1:1.00
0 ?" O* @# J: S) j8 V1 }Language : English7 Z; s7 ?% X9 _8 e+ I
Default : Yes
. B- _! R: V* K1 Y6 @) _- o  LForced : No
( Q" m  M! K7 `! ]
5 X. T" {" P2 uAudio- c0 T& u& ?( J. h- q0 l' o2 d
ID : 2
& d! }7 O7 q. ]. l4 n$ e* uFormat : DTS XLL
- \/ l. E8 |; GFormat/Info : Digital Theater Systems
; w+ _' W, K, W8 SCommercial name : DTS-HD Master Audio
# f+ J% o; q1 ~. i6 b2 ECodec ID : A_DTS
; v  i& v& J, tDuration : 1 h 54 min1 d. {! X8 @$ K. `  [3 {" X# w- q
Bit rate mode : Variable: W; P% _* Z1 y  ?. y& k! w" t
Bit rate : 3 789 kb/s
# D( y* f0 i& t9 H3 n2 e% H9 |1 P+ qChannel(s) : 8 channels5 q4 z* Q8 r/ B# G' b1 Q- n9 V
Channel layout : C L R LFE Lb Rb Lss Rss
: ~7 {  f, b6 Z: w( q! N  ISampling rate : 48.0 kHz. ]6 ~0 s. O0 C* ]/ n
Frame rate : 93.750 FPS (512 SPF)
8 |& L0 j; M& T# iBit depth : 24 bits
" x$ F8 W! B) ?' sCompression mode : Lossless. I% g- n7 f  f4 l. e5 V: G
Stream size : 3.04 GiB (29%)
2 E- s) x0 @3 |9 c8 {2 ^" BTitle : Men.in.Black.International.2019.1080p.BluRay.x264.DTS-HD.MA.7.1-FGT
* r& e; }* L  A' |1 LLanguage : English3 M  x% }2 B8 ^- B  _2 G9 a( s7 r
Default : Yes
/ l; m7 G9 H' p' I0 j4 y+ p# F5 Y5 TForced : No
$ q# e/ A/ ^2 q
3 Z$ u: K2 n4 z3 O: \# lText #1+ O$ ^+ a  B0 _2 t0 E1 Q0 k3 D% ^  z
ID : 3
9 J/ g, i9 }3 Q5 \6 n! cFormat : UTF-82 h: H) ]8 a2 }$ C9 s# [. ]
Codec ID : S_TEXT/UTF87 f6 e5 {/ @6 @; u- ^* Y+ f8 K
Codec ID/Info : UTF-8 Plain Text6 T; Q  G; f4 D) |8 U' j5 d& u; A
Duration : 1 h 43 min
# c  b* b( w- V0 u* ~Bit rate : 68 b/s
' M0 i; _1 j( G* o- I" l$ ^Count of elements : 1536
3 @$ A# F: e, d  v9 aStream size : 51.8 KiB (0%)
% u" A: _2 r+ ?7 y0 ^Title : English-SRT4 a& ?+ m' r* ]4 T, E+ U
Language : English+ m( B7 S3 ?2 Z, ^# `% F
Default : Yes5 p7 w3 }' K2 D$ h
Forced : No% W& K3 `& B8 Z3 h0 d8 E- [  G3 `

& k- U9 e) w  ^( Z. _4 @Text #2: Z% ]$ s! A# p! d
ID : 4
! V* ^+ S; ^( d, w- ZFormat : UTF-8" g; ?4 P6 S9 ?, J. ^1 B
Codec ID : S_TEXT/UTF8
2 T+ a/ Y9 {0 n: D) a" kCodec ID/Info : UTF-8 Plain Text4 w* Z& T  n# F9 P# T
Duration : 1 h 43 min
$ ?# Q$ D9 s' j% N: `/ @Bit rate : 73 b/s
# U1 U  k5 \8 m, hCount of elements : 1720
- i4 c2 v8 J- s& }; G$ WStream size : 55.6 KiB (0%)
$ c$ ?% v  e5 L! q+ @  dTitle : English-SD-SRT0 A5 D9 ?" K4 l0 N& [9 z
Language : English4 G, K9 H$ U& v# c: F6 C
Default : No
' d# f% V* d* x7 J, z3 U4 RForced : No
9 ]8 X# g9 v1 n1 }. j0 G9 l
9 q9 F( |4 C- J# `0 cText #34 o/ G/ S  \2 }! [7 [3 X
ID : 56 [# c+ O4 r3 J# z9 [) G
Format : PGS
  M, D7 }4 Q$ o( R0 A) A  xMuxing mode : zlib. I0 M) L/ S, p. [6 w
Codec ID : S_HDMV/PGS
. B- S/ }: d6 w- M, uCodec ID/Info : Picture based subtitle format used on BDs/HD-DVDs
$ b) ~2 v" [7 {0 j2 wDuration : 1 h 43 min
! t: w4 G# v% x% JBit rate : 40.4 kb/s
; w' w( K6 @9 E2 d( O# a; D8 m3 sCount of elements : 2970& z) P2 g) I6 s' C6 l) G
Stream size : 29.9 MiB (0%)( `) K( f' P6 H/ ~& C9 F" y
Title : English-PGS
4 p1 w4 D9 ~0 f' L8 D5 V1 r6 U3 ~Language : English; H( r! d7 V1 E+ c/ S( C
Default : No' i* A8 d/ p* ?! H; n0 K3 C! V
Forced : No: I2 S4 o+ s7 m6 _. t5 ~
7 N8 T# G! g' L/ v5 U0 ~
Text #4
: z! n2 G  N6 U0 C8 i" y( s# lID : 62 L1 x2 v$ ^" U+ q2 o  k
Format : PGS
8 \0 f7 z0 t9 `# S0 u& f7 FMuxing mode : zlib
/ c4 ]* [$ n# b$ b" oCodec ID : S_HDMV/PGS
5 s, ]4 V2 L! M  I/ y# S9 qCodec ID/Info : Picture based subtitle format used on BDs/HD-DVDs
4 S- l- X0 ~/ a4 EDuration : 1 h 44 min; b' M$ L5 V0 l: }: Y: r2 ?
Bit rate : 45.5 kb/s
7 T4 _/ M0 _1 I% b3 _* r2 q: wCount of elements : 3560* Z; h1 p- s& X
Stream size : 34.1 MiB (0%)4 q% ~# f: _/ H+ p
Title : English-SDH-PGS
* [# M" I* B5 H# [" B  ~7 ALanguage : English
/ M7 P( z9 V! }. `# NDefault : No
) F; R: J" {5 f: I) V1 a3 ^Forced : No1 f3 ?6 W% ?7 {* H
; l6 P, j! R: b
Text #5
, N8 e% `/ \' u( h$ bID : 7( F# _) I) E" A2 a
Format : PGS7 h9 @' w5 H; ?( O- L5 Z; z
Muxing mode : zlib
/ t" V# _$ Z, k. @% \) T/ f* hCodec ID : S_HDMV/PGS
9 U9 E# \7 v0 hCodec ID/Info : Picture based subtitle format used on BDs/HD-DVDs
1 |: w. f" A' Y$ H2 G+ JDuration : 1 h 53 min" N9 p. A2 f* G0 N+ `7 b$ [- J0 q* ?* K
Bit rate : 29.2 kb/s
  X( L) u0 ~3 W5 o4 Y0 T4 kCount of elements : 2942  o- d5 ?( z' ^1 W
Stream size : 23.6 MiB (0%). q  {0 N' [. u8 G" E5 l" ]
Title : French-PGS8 W; C) d. e& t5 L! c! I3 f% Y
Language : French" P* e! F5 h0 t  V
Default : No
  G/ f$ P+ E4 p/ E& _/ r7 sForced : No3 D* ]7 k& z' Q# V7 w

5 ?8 ]8 a9 K! l! t7 WText #6
8 k' K5 t0 ^+ vID : 8
5 E( A& E$ ~$ |, sFormat : PGS
! t" u" }& l. ?Muxing mode : zlib
$ u, I! F, o+ m+ s) fCodec ID : S_HDMV/PGS: C* f9 q3 G. I
Codec ID/Info : Picture based subtitle format used on BDs/HD-DVDs
$ C+ u' A, S. hDuration : 1 h 53 min
. u# u$ c2 x) F' G3 w. _Bit rate : 35.1 kb/s8 T% L& u; P5 c! a4 @7 e2 X8 d
Count of elements : 2854$ T7 R8 U% n0 V8 X
Stream size : 28.5 MiB (0%)
) J/ A) q# }4 t% W: J: tTitle : Spanish-PGS$ Q  a# N' E4 I! i; f9 b  {% \6 Y# B
Language : Spanish
; _9 x4 H3 w! I3 p- }# C2 mDefault : No
6 p# P. a0 t# {& j9 o5 KForced : No4 P" O7 |7 V* P/ i; Q* x( H

- w' V1 }$ {8 G: u4 ?( G% _Menu
& `1 Q8 C1 W* O7 d5 d; ]& G- {00:00:00.000 : en:Chapter 01% B- ^; ?# Y$ R. |& W$ s) K
00:07:58.394 : en:Chapter 02' _6 [% E8 x4 H, L9 X  O( P
00:15:32.890 : en:Chapter 03
, p) H2 A. f/ L: j7 T3 c00:20:09.583 : en:Chapter 04* q1 @1 Q! c# f- q7 S
00:27:17.135 : en:Chapter 05! A# c8 M: `2 X  M1 ^5 A
00:34:29.650 : en:Chapter 06. ]) V+ `; c  F( ?
00:46:10.267 : en:Chapter 074 X4 n! B! q0 z2 k1 H
00:50:31.653 : en:Chapter 08
. a  Z/ i, I+ z& @+ E00:59:01.204 : en:Chapter 09
( G& ^& h4 k  d01:03:12.914 : en:Chapter 10, V( R+ X) d) N9 j* _1 B' L
01:10:51.413 : en:Chapter 11
8 n2 `$ a( |$ D+ `3 P$ R; u01:14:35.888 : en:Chapter 12( P: M8 C* s3 t' ^/ K! u
01:25:31.376 : en:Chapter 13* T  a8 C3 e* W6 z8 T
01:28:49.574 : en:Chapter 14
9 V% a( @/ j' Y$ D; r4 W01:34:29.246 : en:Chapter 155 T/ C, P) Q7 h
01:43:31.830 : en:Chapter 16
6 q: f' z! d% o
- y( a9 b9 T* o5 @) d; b' ?% V

! |5 ]0 q0 j/ e

馬大姐. MKV.torrent

52.36 KB, 下載次數: 21

累計簽到︰1179 天
連續簽到︰15 天
發表於 2019-8-25 13:25:35 | 顯示全部樓層
VIP精品區,資源無限好賺金任務區,輕松賺金幣
加入VIP,享受高級特權宣傳賺金又升級,超級棒
很讚的文章,謝謝咯!相信WK因為有你而更加精彩!

回復樓主 親!! 現在是淩晨!妳失眠啦?餓啦?通宵加班?還是想WK啦?

 分享同時學會感恩,一句感謝的話語,就是最大的支持!  歡迎交流討論
您需要登錄後才可以回帖 登錄 | 立即注册

本版積分規則



c重要聲明:本論壇是以即時上載言論的方式運作,WK論壇對所有言論的真實性、立場及版權等,不負任何法律責任。而一切言論只代表發佈者個人意見,並非本網站之立場,讀者及用戶務必自行判斷內容之真實性。 由於本論壇受到「即時上載言論」運作方式所規限,故不能完全監察所有言論,若讀者及用戶發現有內容出現「真實性、立場及版權」等問題,請聯絡我們:info@waikeung.net論壇有權刪除任何言論(刪除前或不會作事先警告及通知)| SiteMap[網站地圖]

發表新帖 返回頂部